吕方.好情歌.2007香港演唱会.45.71G.1080P高清蓝光原盘演唱会.BDMV

1298.吕方.好情歌.2007香港演唱会.45.71G.1080P高清蓝光原盘演唱会.BDMV

吕方 演唱会视频下载地址

1298.吕方.好情歌.2007香港演唱会.45.71G.1080P高清蓝光原盘演唱会.BDMV

网盘下载地址
1.阿里云盘. 2.百度网盘
提取码 —>请您付费获取查看

【付费内容】您需要支付8元 才能查看内容
点击扫码支付购买
如果遇到问题请提前截图发给客服
QQ 2268809533

吕方 演唱会视频截图

吕方 演唱会视频剧情截图

吕方 演唱会视频介绍

暂无

吕方 演唱会视频参数

DISC INFO:

Disc Label: 1298.吕方.好情歌.2007香港演唱会.45.71G.1080P高清蓝光原盘演唱会.BDMV
Disc Size: 49,085,008,688 bytes
Protection: AACS
BDInfo: 0.7.5.5

PLAYLIST REPORT:

Name: 00000.MPLS
Length: 2:41:36.987 (h:m:s.ms)
Size: 0 bytes
Total Bitrate: 0.00 Mbps

VIDEO:

Codec Bitrate Description
—– ——- ———–
MPEG-4 AVC Video 0 kbps 1080i / 29.970 fps / 16:9 / High Profile 4.1

AUDIO:

Codec Language Bitrate Description
—– ——– ——- ———–
LPCM Audio Chinese 4608 kbps 5.1 / 48 kHz / 4608 kbps / 16-bit
DTS-HD Master Audio Chinese 0 kbps 5.1 / 48 kHz / 16-bit (DTS Core: 5.1 / 48 kHz / 1509 kbps / 16-bit)
Dolby Digital Audio Chinese 640 kbps 5.1 / 48 kHz / 640 kbps / DN -31dB
Dolby Digital Audio Chinese 640 kbps 2.0 / 48 kHz / 640 kbps / DN -31dB / Dolby Surround

SUBTITLES:

Codec Language Bitrate Description
—– ——– ——- ———–
Presentation Graphics Chinese 0.000 kbps
Presentation Graphics Chinese 0.000 kbps

FILES:

Name Time In Length Size Total Bitrate
—- ——- —— —- ————-
00000.M2TS 0:00:00.000 0:53:37.447 0 0
00001.M2TS 0:53:37.447 0:52:07.491 0 0
00002.M2TS 1:45:44.938 0:55:52.048 0 0

吕方 演唱会视频下载地址

1298.吕方.好情歌.2007香港演唱会.45.71G.1080P高清蓝光原盘演唱会.BDMV

网盘下载地址
1.阿里云盘. 2.百度网盘
提取码 —>请您付费获取查看

【付费内容】您需要支付8元 才能查看内容
点击扫码支付购买
如果遇到问题请提前截图发给客服
QQ 2268809533

吕方 演唱会视频文件格式

BDMV蓝光原盘M2TS高清格式

吕方 演唱会视频文件大小

45.71G

吕方 演唱会视频字幕

中文简体+繁体字幕

吕方 演唱会视频编码

www.dengshe.com.1298
lgych-00036

显示验证码
没有账号? 注册  忘记密码?