许志安.张卫健.梁汉文.苏永康.大四喜.The Big Four 2010巡回演唱会香港站.43.78G.1080P高清蓝光原盘演唱会.BDMV

1345.许志安.张卫健.梁汉文.苏永康.大四喜.The

演唱会视频下载地址

1345.许志安.张卫健.梁汉文.苏永康.大四喜.The Big Four 2010巡回演唱会香港站.43.78G.1080P高清蓝光原盘演唱会.BDMV

网盘下载地址
1.阿里云盘. 2.百度网盘
提取码 —>请您付费获取查看

【付费内容】您需要支付8元 才能查看内容
点击扫码支付购买
如果遇到问题请提前截图发给客服
QQ 2268809533

演唱会视频截图

演唱会视频剧情截图

演唱会视频介绍

暂无

演唱会视频参数

DISC INFO:

Disc Title: 1345.许志安.张卫健.梁汉文.苏永康.大四喜.The Big Four 2010巡回演唱会香港站.43.78G.1080P高清蓝光原盘演唱会.BDMV
Disc Label: www.dengshe.com.1345.BDMV
Disc Size: 47,009,001,540 bytes
Protection: AACS
BDInfo: 0.7.5.5

PLAYLIST REPORT:

Name: 00001.MPLS
Length: 2:36:09.426 (h:m:s.ms)
Size: 0 bytes
Total Bitrate: 0.00 Mbps

VIDEO:

Codec Bitrate Description
—– ——- ———–
MPEG-4 AVC Video 0 kbps 1080i / 29.970 fps / 16:9 / High Profile 4.1

AUDIO:

Codec Language Bitrate Description
—– ——– ——- ———–
LPCM Audio Chinese 6912 kbps 5.1 / 48 kHz / 6912 kbps / 24-bit
DTS-HD Master Audio Chinese 0 kbps 5.1 / 48 kHz / 24-bit (DTS Core: 5.1 / 48 kHz / 1509 kbps / 24-bit)
Dolby Digital Audio Chinese 640 kbps 5.1 / 48 kHz / 640 kbps / DN -27dB
Dolby Digital Audio Chinese 384 kbps 2.0 / 48 kHz / 384 kbps / DN -27dB

SUBTITLES:

Codec Language Bitrate Description
—– ——– ——- ———–
Presentation Graphics Chinese 0.000 kbps
Presentation Graphics Chinese 0.000 kbps

FILES:

Name Time In Length Size Total Bitrate
—- ——- —— —- ————-
00003.M2TS 0:00:00.000 1:57:02.815 0 0
00004.M2TS 1:57:02.815 0:38:52.596 0 0
00009.M2TS 2:35:55.412 0:00:14.014 0 0

演唱会视频下载地址

1345.许志安.张卫健.梁汉文.苏永康.大四喜.The Big Four 2010巡回演唱会香港站.43.78G.1080P高清蓝光原盘演唱会.BDMV

网盘下载地址
1.阿里云盘. 2.百度网盘
提取码 —>请您付费获取查看

【付费内容】您需要支付8元 才能查看内容
点击扫码支付购买
如果遇到问题请提前截图发给客服
QQ 2268809533

演唱会视频文件格式

BDMV蓝光原盘M2TS高清格式

演唱会视频文件大小

43.78G

演唱会视频字幕

中文简体+繁体字幕

演唱会视频编码

www.dengshe.com.1345
lgych-00040

显示验证码
没有账号? 注册  忘记密码?