香港群星.金典娱乐真经典.2010香港红馆演唱会.郑少秋.带KTV字幕.50.1G.双碟.1080P高清蓝光原盘演唱会.BDMV

1531.香港群星.金典娱乐真经典.2010香港红馆演唱会.郑少秋.带KTV字幕.50.1G.双碟.1080P高清蓝光原盘演唱会.BDMV

演唱会视频下载地址

1531.香港群星.金典娱乐真经典.2010香港红馆演唱会.郑少秋.带KTV字幕.50.1G.双碟.1080P高清蓝光原盘演唱会.BDMV

网盘下载地址
1.阿里云盘. 2.百度网盘
提取码 —>请您付费获取查看

【付费内容】您需要支付8元 才能查看内容
点击扫码支付购买
如果遇到问题请提前截图发给客服
QQ 2268809533

演唱会视频截图

演唱会视频剧情截图

演唱会视频介绍

暂无

演唱会视频参数

DISC INFO:

Disc Label: 1531.香港群星.金典娱乐真经典.2010香港红馆演唱会.郑少秋.带KTV字幕.50.1G.双碟.1080P高清蓝光原盘演唱会.BDMV
Disc Size: 46,158,051,150 bytes
Protection: AACS
BDInfo: 0.7.5.5

PLAYLIST REPORT:

Name: 00001.MPLS
Length: 2:37:51.778 (h:m:s.ms)
Size: 0 bytes
Total Bitrate: 0.00 Mbps

VIDEO:

Codec Bitrate Description
—– ——- ———–
MPEG-4 AVC Video 0 kbps Left Eye / 1080i / 29.970 fps / 16:9 / High Profile 4.1
MPEG-4 AVC Video 0 kbps Left Eye / 480i / 29.970 fps / 16:9 / High Profile 3.2

AUDIO:

Codec Language Bitrate Description
—– ——– ——- ———–
LPCM Audio Chinese 4608 kbps 5.1 / 48 kHz / 4608 kbps / 16-bit
DTS-HD Master Audio Chinese 0 kbps 5.1 / 48 kHz / 24-bit (DTS Core: 5.1 / 48 kHz / 1509 kbps / 24-bit)
Dolby Digital Audio Chinese 640 kbps 5.1 / 48 kHz / 640 kbps / DN -31dB
Dolby Digital Audio Chinese 384 kbps 2.0 / 48 kHz / 384 kbps / DN -31dB

SUBTITLES:

Codec Language Bitrate Description
—– ——– ——- ———–
Presentation Graphics Chinese 0.000 kbps

FILES:

Name Time In Length Size Total Bitrate
—- ——- —— —- ————-
00003.M2TS 0:00:00.000 1:00:53.883 0 0
00004.M2TS 1:00:53.883 0:55:33.396 0 0
00005.M2TS 1:56:27.280 0:41:23.747 0 0
00007.M2TS 2:37:51.028 0:00:00.750 0 0

演唱会视频下载地址

1531.香港群星.金典娱乐真经典.2010香港红馆演唱会.郑少秋.带KTV字幕.50.1G.双碟.1080P高清蓝光原盘演唱会.BDMV

网盘下载地址
1.阿里云盘. 2.百度网盘
提取码 —>请您付费获取查看

【付费内容】您需要支付8元 才能查看内容
点击扫码支付购买
如果遇到问题请提前截图发给客服
QQ 2268809533

演唱会视频文件格式

BDMV蓝光原盘M2TS高清格式

演唱会视频文件大小

50.1G

演唱会视频字幕

中文繁体字幕

演唱会视频编码

www.dengshe.com.1531
lgych-00074

显示验证码
没有账号? 注册  忘记密码?