韩国KARA组合.Karasia 2013 Happy New Year in Tokyo Dome.东京巨蛋演唱会.54.9G.1080P高清蓝光原盘演唱会.ISO

1972.韩国KARA组合.Karasia

Kara 演唱会视频下载地址

1972.韩国KARA组合.Karasia 2013 Happy New Year in Tokyo Dome.东京巨蛋演唱会.54.9G.1080P高清蓝光原盘演唱会.ISO

网盘下载地址
1.阿里云盘. 2.百度网盘
提取码 —>请您付费获取查看

【付费内容】您需要支付8元 才能查看内容
点击扫码支付购买
如果遇到问题请提前截图发给客服
QQ 2268809533

Kara 演唱会视频截图

Kara 演唱会视频剧情截图

Kara 演唱会视频介绍

暂无

Kara 演唱会视频参数

DISC INFO:

Disc Title: KARASIA 2013 HAPPY NEW YEAR IN TOKYO DOME 1972.韩国KARA组合.Karasia 2013 Happy New Year in Tokyo Dome.东京巨蛋演唱会.54.9G.1080P高清蓝光原盘演唱会.ISO
Disc Label: www.dengshe.com.UMXK_9007
Disc Size: 43,716,693,982 bytes
Protection: 灯社演唱会下载
BDInfo: www.dengshe.com

PLAYLIST REPORT:

Name: 00001.MPLS
Length: 2:36:16.667 (h:m:s.ms)
Size: 0 bytes
Total Bitrate: 0.00 Mbps

VIDEO:

Codec Bitrate Description
—– ——- ———–
MPEG-4 AVC Video 0 kbps 1080i / 29.970 fps / 16:9 / High Profile 4.1

AUDIO:

Codec Language Bitrate Description
—– ——– ——- ———–
LPCM Audio Japanese 2304 kbps 2.0 / 48 kHz / 2304 kbps / 24-bit

FILES:

Name Time In Length Size Total Bitrate
—- ——- —— —- ————-
00002.M2TS 0:00:00.000 0:45:58.622 0 0
00003.M2TS 0:45:58.622 0:48:43.353 0 0
00004.M2TS 1:34:41.976 1:01:34.690 0 0

Kara 演唱会视频下载地址

1972.韩国KARA组合.Karasia 2013 Happy New Year in Tokyo Dome.东京巨蛋演唱会.54.9G.1080P高清蓝光原盘演唱会.ISO

网盘下载地址
1.阿里云盘. 2.百度网盘
提取码 —>请您付费获取查看

【付费内容】您需要支付8元 才能查看内容
点击扫码支付购买
如果遇到问题请提前截图发给客服
QQ 2268809533

Kara 演唱会视频文件格式

ISO蓝光原盘M2TS高清格式

Kara 演唱会视频文件大小

54.9G

Kara 演唱会视频字幕

Kara 演唱会视频编码

www.dengshe.com.1972
lgych-00138

显示验证码
没有账号? 注册  忘记密码?