水树奈奈.Nana Mizuki NANA CLIPS 5.MV+LIVE合集2010.43.2G.1080P高清蓝光原盘演唱会.BDMV

2766.水树奈奈.Nana

水树奈奈 演唱会视频下载地址

2766.水树奈奈.Nana Mizuki NANA CLIPS 5.MV+LIVE合集2010.43.2G.1080P高清蓝光原盘演唱会.BDMV

网盘下载地址
1.阿里云盘. 2.百度网盘
提取码 —>请您付费获取查看

【付费内容】您需要支付8元 才能查看内容
点击扫码支付购买
如果遇到问题请提前截图发给客服
QQ 2268809533

水树奈奈 演唱会视频截图

水树奈奈 演唱会视频剧情截图

水树奈奈 演唱会视频介绍

暂无

水树奈奈 演唱会视频参数

DISC INFO:

Disc Label: 2766.水树奈奈.Nana Mizuki NANA CLIPS 5.MV+LIVE合集2010.43.2G.1080P高清蓝光原盘演唱会.BDMV
Disc Size: 46,486,664,540 bytes
Protection: 灯社演唱会下载
BDInfo: www.dengshe.com

PLAYLIST REPORT:

Name: 00001.MPLS
Length: 2:55:44.133 (h:m:s.ms)
Size: 0 bytes
Total Bitrate: 0.00 Mbps

VIDEO:

Codec Bitrate Description
—– ——- ———–
MPEG-4 AVC Video 0 kbps 1080i / 29.970 fps / 16:9 / High Profile 4.1

AUDIO:

Codec Language Bitrate Description
—– ——– ——- ———–
LPCM Audio Japanese 1536 kbps 2.0 / 48 kHz / 1536 kbps / 16-bit

FILES:

Name Time In Length Size Total Bitrate
—- ——- —— —- ————-
00001.M2TS 0:00:00.000 0:35:45.143 0 0
00002.M2TS 0:35:45.143 0:05:21.320 0 0
00024.M2TS 0:41:06.464 0:05:59.359 0 0

水树奈奈 演唱会视频下载地址

2766.水树奈奈.Nana Mizuki NANA CLIPS 5.MV+LIVE合集2010.43.2G.1080P高清蓝光原盘演唱会.BDMV

网盘下载地址
1.阿里云盘. 2.百度网盘
提取码 —>请您付费获取查看

【付费内容】您需要支付8元 才能查看内容
点击扫码支付购买
如果遇到问题请提前截图发给客服
QQ 2268809533

水树奈奈 演唱会视频文件格式

BDMV蓝光原盘M2TS高清格式

水树奈奈 演唱会视频文件大小

43.2G

水树奈奈 演唱会视频字幕

水树奈奈 演唱会视频编码

www.dengshe.com.2766
lgych-00265

显示验证码
没有账号? 注册  忘记密码?