滨崎步.Arena Tour A Made In Japan+Countdown Live A Made In Tokyo.演唱会.96G.三碟.1080P高清蓝光原盘演唱会.ISO

2833.滨崎步.Arena

滨崎步 演唱会视频下载地址

2833.滨崎步.Arena Tour A Made In Japan+Countdown Live A Made In Tokyo.演唱会.96G.三碟.1080P高清蓝光原盘演唱会.ISO

网盘下载地址
1.阿里云盘. 2.百度网盘
提取码 —>请您付费获取查看

【付费内容】您需要支付8元 才能查看内容
点击扫码支付购买
如果遇到问题请提前截图发给客服
QQ 2268809533

滨崎步 演唱会视频截图

滨崎步 演唱会视频剧情截图

滨崎步 演唱会视频介绍

暂无

滨崎步 演唱会视频参数

DISC INFO:

Disc Label: 2833.滨崎步.Arena Tour A Made In Japan+Countdown Live A Made In Tokyo.演唱会.96G.三碟.1080P高清蓝光原盘演唱会.ISO
Disc Size: 46,029,484,228 bytes
Protection: 灯社演唱会下载
BDInfo: www.dengshe.com

PLAYLIST REPORT:

Name: 00001.MPLS
Length: 3:05:27.741 (h:m:s.ms)
Size: 0 bytes
Total Bitrate: 0.00 Mbps

VIDEO:

Codec Bitrate Description
—– ——- ———–
MPEG-4 AVC Video 0 kbps 1080p / 23.976 fps / 16:9 / High Profile 4.1

AUDIO:

Codec Language Bitrate Description
—– ——– ——- ———–
LPCM Audio Japanese 2304 kbps 2.0 / 48 kHz / 2304 kbps / 24-bit

FILES:

Name Time In Length Size Total Bitrate
—- ——- —— —- ————-
00001.M2TS 0:00:00.000 1:55:16.910 0 0
00002.M2TS 1:55:16.910 1:04:42.461 0 0
00006.M2TS 2:59:59.371 0:05:28.369 0 0

滨崎步 演唱会视频下载地址

2833.滨崎步.Arena Tour A Made In Japan+Countdown Live A Made In Tokyo.演唱会.96G.三碟.1080P高清蓝光原盘演唱会.ISO

网盘下载地址
1.阿里云盘. 2.百度网盘
提取码 —>请您付费获取查看

【付费内容】您需要支付8元 才能查看内容
点击扫码支付购买
如果遇到问题请提前截图发给客服
QQ 2268809533

滨崎步 演唱会视频文件格式

ISO蓝光原盘M2TS高清格式

滨崎步 演唱会视频文件大小

96.3G

滨崎步 演唱会视频字幕

滨崎步 演唱会视频编码

www.dengshe.com.2833
lgych-00274

显示验证码
没有账号? 注册  忘记密码?