灰色银币.Dir En Grey.ARCHE专辑2014.蓝光特典部分.14.4G.1080P高清蓝光原盘演唱会.BDMV

3436

演唱会视频下载地址

3436 . 灰色银币.Dir En Grey.ARCHE专辑2014.蓝光特典部分.14.4G.1080P高清蓝光原盘演唱会.BDMV

网盘下载地址
1.百度网盘(有). 2.阿里云盘(有)
提取码 —>请您付费获取查看

【付费内容】您需要支付10元 才能查看内容
点击扫码支付购买

灯社演唱会充值优惠中 ... ...
___ 充值80到账88 ___
支持微信,点击查看详情
... ...
如果遇到问题请提前截图发给客服
QQ 2268809533

演唱会视频截图

演唱会视频剧情截图

演唱会视频介绍

暂无

演唱会视频参数

DISC INFO:

Disc Title: DIR EN GREY_ARCHE
Disc Label: 3436 . 灰色银币.Dir En Grey.ARCHE专辑2014.蓝光特典部分.14.4G.1080P高清蓝光原盘演唱会.BDMV
Disc Size: 15,568,854,116 bytes
Protection: AACS
http://www.dengshe.com

PLAYLIST REPORT:

Name: 00002.MPLS
Length: 0:35:12.276 (h:m:s.ms)
Size: 0 bytes
Total Bitrate: 0.00 Mbps

VIDEO:

Codec Bitrate Description
----- ------- -----------
MPEG-4 AVC Video 0 kbps 1080p / 23.976 fps / 16:9 / High Profile 4.1

AUDIO:

Codec Language Bitrate Description
----- -------- ------- -----------
LPCM Audio Japanese 2304 kbps 2.0 / 48 kHz / 2304 kbps / 24-bit

FILES:

Name Time In Length Size Total Bitrate
---- ------- ------ ---- -------------
00006.M2TS 0:00:00.000 0:34:35.281 0 0
00009.M2TS 0:34:35.281 0:00:27.027 0 0
00010.M2TS 0:35:02.308 0:00:09.968 0 0

演唱会视频下载地址

3436 . 灰色银币.Dir En Grey.ARCHE专辑2014.蓝光特典部分.14.4G.1080P高清蓝光原盘演唱会.BDMV

网盘下载地址
1.百度网盘(有). 2.阿里云盘(有)
提取码 —>请您付费获取查看

【付费内容】您需要支付10元 才能查看内容
点击扫码支付购买

灯社演唱会充值优惠中 ... ...
___ 充值80到账88 ___
支持微信,点击查看详情
... ...
如果遇到问题请提前截图发给客服
QQ 2268809533

演唱会视频文件格式

BDMV蓝光原盘M2TS高清格式

演唱会视频文件大小

14.4G

演唱会视频字幕

演唱会视频编码

http://www.dengshe.com.3436
lgych-00378

显示验证码
没有账号? 注册  忘记密码?