少女时代.金泰妍.Signal Taeyeon Japan Tour 2019.5.31.日本巡回演唱会东京场.39.5G.1080P蓝光原盘

【付费内容】您需要支付 8 元,才能查看内容
点击扫码支付购买
如果遇到问题请提前截图发给客服
QQ 2268809533

演唱会剧情图

演唱会视频参数

DISC INFO:
Disc Title: 5068.少女时代.金泰妍.Signal Taeyeon Japan Tour 2019.5.31.日本巡回演唱会东京场.39.5G.1080P蓝光原盘.DengShe.com
Disc Size: 42,444,809,148 bytes
Protection: AACS
BD-Java: No
BDInfo: 0.5.8
PLAYLIST REPORT:
Name: 00002.MPLS
Length: 1:49:38.738 (h:m:s.ms)
Size: 0 bytes
Total Bitrate: 0.00 Mbps
VIDEO:
Codec Bitrate Description
—– ——- ———–
MPEG-4 AVC Video 0 kbps 1080p / 23.976 fps / 16:9 / High Profile 4.1
AUDIO:
Codec Language Bitrate Description
—– ——– ——- ———–
LPCM Audio Japanese 2304 kbps 2.0 / 48 kHz / 2304 kbps / 24-bit
FILES:
Name Time In Length Size Total Bitrate
—- ——- —— —- ————-
00003.M2TS 0:00:00.000 1:49:25.517 0 0
00005.M2TS 1:49:25.517 0:00:03.628 0 0
00006.M2TS 1:49:29.145 0:00:09.592 0 0

演唱会下载地址

5068.少女时代.金泰妍.Signal Taeyeon Japan Tour 2019.5.31.日本巡回演唱会东京场.39.5G.1080P蓝光原盘.DengShe.com

网盘下载地址
https://pan.baidu.com/s/1AqdvNEiKjJHEWEmJUaXrww
提取码
付费获取查看

【付费内容】您需要支付 8 元,才能查看内容
点击扫码支付购买
如果遇到问题请提前截图发给客服
QQ 2268809533

少女时代.金泰妍.Signal Taeyeon Japan Tour 2019.5.31.日本巡回演唱会东京场.39.5G.1080P蓝光原盘.DengShe.com

没有账号? 注册  忘记密码?