西城男孩.Westlife The Twenty Tour Live from Croke Park.2019爱尔兰演唱会.36.4G.1080P蓝光原盘演唱会.DengShe.com.ISO

【付费内容】您需要支付8元 才能查看内容
点击扫码支付购买
如果遇到问题请提前截图发给客服
QQ 2268809533

演唱会剧情图

演唱会视频参数

DISC INFO:
Disc Title: 6033.西城男孩.Westlife The Twenty Tour Live from Croke Park.2019爱尔兰演唱会.36.4G.1080P蓝光原盘演唱会.DengShe.com.ISO
Disc Size: 39,127,472,689 bytes
Protection: AACS
BD-Java: No
BDInfo: 0.5.8
PLAYLIST REPORT:
Name: 00000.MPLS
Length: 1:52:18.465 (h:m:s.ms)
Size: 0 bytes
Total Bitrate: 0.00 Mbps
VIDEO:
Codec Bitrate Description
—– ——- ———–
MPEG-4 AVC Video 0 kbps 1080i / 29.970 fps / 16:9 / High Profile 4.1
AUDIO:
Codec Language Bitrate Description
—– ——– ——- ———–
LPCM Audio English 2304 kbps 2.0 / 48 kHz / 2304 kbps / 24-bit
DTS-HD Master Audio English 0 kbps 5.1 / 48 kHz / 24-bit (DTS Core: 5.1 / 48 kHz / 1509 kbps / 24-bit)
FILES:
Name Time In Length Size Total Bitrate
—- ——- —— —- ————-
00001.M2TS 0:00:00.000 0:00:01.001 0 0
00000.M2TS 0:00:01.001 1:52:16.463 0 0
00011.M2TS 1:52:17.464 0:00:01.000 0 0

演唱会下载地址

6033.西城男孩.Westlife The Twenty Tour Live from Croke Park.2019爱尔兰演唱会.36.4G.1080P蓝光原盘演唱会.DengShe.com.ISO

网盘下载地址
https://pan.baidu.com/s/1A1IpiJZMVXD37Stt7rLIeA
提取码
付费获取查看

【付费内容】您需要支付8元 才能查看内容
点击扫码支付购买
如果遇到问题请提前截图发给客服
QQ 2268809533

西城男孩.Westlife The Twenty Tour Live from Croke Park.2019爱尔兰演唱会.36.4G.1080P蓝光原盘演唱会.DengShe.com.ISO

显示验证码
没有账号? 注册  忘记密码?