Twice组合.Debut Showcase Touchdown in Japan.日本东京2018演唱会.38.6G.1080P蓝光原盘演唱会.DengShe.com.ISO

【付费内容】您需要支付 8 元,才能查看内容
点击扫码支付购买
如果遇到问题请提前截图发给客服
QQ 2268809533 >> 微信 tao18074625335

演唱会剧情图

演唱会视频参数

DISC INFO:
Disc Title: 6117.Twice组合.Debut Showcase Touchdown in Japan.日本东京2018演唱会.38.6G.1080P蓝光原盘演唱会.DengShe.com.ISO
Disc Size: 41,518,135,495 bytes
Protection: AACS
BD-Java: No
BDInfo: 0.5.8
PLAYLIST REPORT:
Name: 00000.MPLS
Length: 2:22:50.695 (h:m:s.ms)
Size: 0 bytes
Total Bitrate: 0.00 Mbps
VIDEO:
Codec Bitrate Description
—– ——- ———–
MPEG-4 AVC Video 0 kbps 1080i / 29.970 fps / 16:9 / High Profile 4.1
AUDIO:
Codec Language Bitrate Description
—– ——– ——- ———–
LPCM Audio Japanese 2304 kbps 2.0 / 48 kHz / 2304 kbps / 24-bit
FILES:
Name Time In Length Size Total Bitrate
—- ——- —— —- ————-
00002.M2TS 0:00:00.000 1:17:56.672 0 0
00003.M2TS 1:17:56.672 0:45:50.013 0 0
00004.M2TS 2:03:46.685 0:18:58.003 0 0
00008.M2TS 2:22:44.689 0:00:06.006 0 0

演唱会下载地址

6117.Twice组合.Debut Showcase Touchdown in Japan.日本东京2018演唱会.38.6G.1080P蓝光原盘演唱会.DengShe.com.ISO

网盘下载地址
https://pan.baidu.com/s/1lmOvT1tUc376H0LIm73PGg
提取码
4abw

【付费内容】您需要支付 8 元,才能查看内容
点击扫码支付购买
如果遇到问题请提前截图发给客服
QQ 2268809533 >> 微信 tao18074625335

Twice组合.Debut Showcase Touchdown in Japan.日本东京2018演唱会.38.6G.1080P蓝光原盘演唱会.DengShe.com.ISO

没有账号? 注册  忘记密码?