Apink组合.Apink Single Collection 2018.最新日版MV合集.9.93G.1080P蓝光原盘演唱会.DengShe.com.ISO

【付费内容】您需要支付 10 元,才能查看内容
点击扫码支付购买
如果遇到问题请提前截图发给客服
QQ 2268809533

演唱会剧情图

演唱会视频参数

DISC INFO:
Disc Title: 6131.Apink组合.Apink Single Collection 2018.最新日版MV合集.9.93G.1080P蓝光原盘演唱会.DengShe.com.ISO
Disc Size: 10,199,640,070 bytes
Protection: AACS
BD-Java: No
BDInfo: 0.5.8
PLAYLIST REPORT:
Name: 00002.MPLS
Length: 0:33:52.864 (h:m:s.ms)
Size: 0 bytes
Total Bitrate: 0.00 Mbps
VIDEO:
Codec Bitrate Description
—– ——- ———–
MPEG-4 AVC Video 0 kbps 1080p / 23.976 fps / 16:9 / High Profile 4.1
AUDIO:
Codec Language Bitrate Description
—– ——– ——- ———–
LPCM Audio Japanese 2304 kbps 2.0 / 48 kHz / 2304 kbps / 24-bit
FILES:
Name Time In Length Size Total Bitrate
—- ——- —— —- ————-
00005.M2TS 0:00:00.000 0:03:41.804 0 0
00006.M2TS 0:03:41.804 0:00:05.004 0 0
00007.M2TS 0:03:46.809 0:03:39.219 0 0
00008.M2TS 0:07:26.028 0:00:05.004 0 0
00009.M2TS 0:07:31.033 0:04:03.034 0 0

演唱会下载地址

6131.Apink组合.Apink Single Collection 2018.最新日版MV合集.9.93G.1080P蓝光原盘演唱会.DengShe.com.ISO

网盘下载地址
https://pan.baidu.com/s/13E2lbPnhclFYK16mFyXplw
提取码
76vs

【付费内容】您需要支付 10 元,才能查看内容
点击扫码支付购买
如果遇到问题请提前截图发给客服
QQ 2268809533

Apink组合.Apink Single Collection 2018.最新日版MV合集.9.93G.1080P蓝光原盘演唱会.DengShe.com.ISO

没有账号? 注册  忘记密码?