李知恩.IU Love Poem.韩国巡回演唱会2019首尔站.54.6G.双碟.1080P蓝光原盘演唱会.ISO

【付费内容】您需要支付8元 才能查看内容
点击扫码支付购买
如果遇到问题请提前截图发给客服
QQ 2268809533

演唱会剧情图

暂无

演唱会视频介绍

李知恩.IU Love Poem.韩国巡回演唱会2019首尔站.54.6G.双碟.1080P蓝光原盘演唱会.ISO

演唱会视频参数

DISC INFO:

Disc Title: 李知恩.IU Love Poem.韩国巡回演唱会2019首尔站.54.6G.双碟.1080P蓝光原盘演唱会.ISO
Disc Size: 33,342,355,456 bytes
Protection: AACS
BDInfo: 0.7.5.9

PLAYLIST REPORT:

Name: 00000.MPLS
Length: 1:39:00.167 (h:m:s.ms)
Size: 32,814,913,536 bytes
Total Bitrate: 44.19 Mbps

VIDEO:

Codec Bitrate Description
—– ——- ———–
MPEG-4 AVC Video 0 kbps 1080i / 29.970 fps / 16:9 / High Profile 4.1

AUDIO:

Codec Language Bitrate Description
—– ——– ——- ———–
DTS-HD Master Audio Korean 0 kbps 2.0 / 48 kHz / 24-bit (DTS Core: 2.0 / 48 kHz / 1509 kbps / 24-bit)
DTS-HD Master Audio Korean 0 kbps 5.1 / 48 kHz / 24-bit (DTS Core: 5.1 / 48 kHz / 1509 kbps / 24-bit)

SUBTITLES:

Codec Language Bitrate Description
—– ——– ——- ———–
Presentation Graphics Korean 0 kbps
Presentation Graphics English 0 kbps
Presentation Graphics Japanese 0 kbps
Presentation Graphics Chinese 0 kbps
Presentation Graphics Chinese 0 kbps

FILES:

Name Time In Length Size Total Bitrate
—- ——- —— —- ————-
00000.M2TS 0:00:00.000 1:37:18.732 32,271,458,304 44,217 kbps
00006.M2TS 1:37:18.732 0:01:40.433 539,523,072 42,975 kbps
00005.M2TS 1:38:59.166 0:00:01.000 3,932,160 31,425 kbps

演唱会下载地址

李知恩.IU Love Poem.韩国巡回演唱会2019首尔站.54.6G.双碟.1080P蓝光原盘演唱会.ISO

网盘下载地址
https://www.aliyundrive.com/s/wgVofZMi3wy
提取码
付费获取查看

【付费内容】您需要支付8元 才能查看内容
点击扫码支付购买
如果遇到问题请提前截图发给客服
QQ 2268809533

演唱会文件格式

.ISO

演唱会字幕

中文字幕+韩文字幕+英文字幕

演唱会编码

www.dengshe.com.6515

李知恩.IU Love Poem.韩国巡回演唱会2019首尔站.54.6G.双碟.1080P蓝光原盘演唱会.ISO

显示验证码
没有账号? 注册  忘记密码?