BLACKPINK组合.The Album专辑.2021日本线上演唱会.33.8G.金智秀.金珍妮.朴彩英.LISA.1080P蓝光原盘演唱会.ISO

【付费内容】您需要支付8元 才能查看内容
点击扫码支付购买
如果遇到问题请提前截图发给客服
QQ 2268809533

演唱会剧情图

演唱会视频介绍

演唱会曲目

BLACKPINK 2021 [THE SHOW]

1. BLACKPINK – OPENING VCR
2. BLACKPINK – KILL THIS LOVE
3. BLACKPINK – CRAZY OVER YOU
4. BLACKPINK – MENT #1
5. BLACKPINK – HOW YOU LIKE THAT
6. BLACKPINK – BRIDGE VCR #1
7. BLACKPINK – DON T KNOW WHAT TO DO
8. BLACKPINK – (PLAYING WITH FIRE)
9. BLACKPINK – LOVESICK GIRLS
10. BLACKPINK – LOVE TO HATE ME
11. BLACKPINK – YOU NEVER KNOW
12. BLACKPINK – SOLO
13. BLACKPINK – GONE
14. BLACKPINK – BRIDGE VCR #2
15. BLACKPINK – PRETTY SAVAGE
16. BLACKPINK – (DDU-DU DDU-DU)
17. BLACKPINK – BRIDGE VCR #3
18. BLACKPINK – (WHISTLE)
19. BLACKPINK – (AS IF IT’S YOUR LAST)
20. BLACKPINK – (BOOMBAYAH)
21. BLACKPINK – MENT #2
22. BLACKPINK – BRIDGE VCR #4
23. BLACKPINK – FOREVER YOUNG
24. BLACKPINK – MENT #3 + OUTRO
25. BLACKPINK – ENDING VCR

BLACKPINK 2021 [THE SHOW] (SPECIAL FEATURES)

1. BLACKPINK 2021 [THE SHOW] TRAILER
2. BLACKPINK 2021 [THE SHOW] BEHIND
1) [THE SHOW] BEHIND EP.1 [BAND SESSION]
2) [THE SHOW] BEHIND EP.2 [Pretty Savage @ BAND SESSION]
3) [THE SHOW] BEHIND EP.3 [CONCERT VIDEO SHOOT]
4) [THE SHOW] BEHIND EP.4 [REHEARSAL SITE]
5) [THE SHOW] BEHIND EP.5 [THE SHOW D-DAY]
6) MAKING FILM
3. BLACKPINK 2021 [THE SHOW] l MULTI ANGLES
1) (PLAYING WITH FIRE)
金智秀+金珍妮+朴彩英+LISA
2) FOREVER YOUNG
金智秀+金珍妮+朴彩英+LISA

演唱会视频参数

DISC INFO:

Disc Title: BLACKPINK组合.The Album专辑.2021日本线上演唱会.33.8G.金智秀.金珍妮.朴彩英.LISA.1080P蓝光原盘演唱会.ISO
Disc Size: 36,364,852,495 bytes
Protection: AACS
BD-Java: No
BDInfo: 0.5.8

PLAYLIST REPORT:

Name: 00001.MPLS
Length: 2:03:40.212 (h:m:s.ms)
Size: 0 bytes
Total Bitrate: 0.00 Mbps

VIDEO:

Codec Bitrate Description
—– ——- ———–
MPEG-4 AVC Video 0 kbps 1080i / 29.970 fps / 16:9 / High Profile 4.1

AUDIO:

Codec Language Bitrate Description
—– ——– ——- ———–
LPCM Audio Korean 2304 kbps 2.0 / 48 kHz / 2304 kbps / 24-bit

FILES:

Name Time In Length Size Total Bitrate
—- ——- —— —- ————-
00000.M2TS 0:00:00.000 1:17:15.230 0 0
00001.M2TS 1:17:15.230 0:00:43.877 0 0
00002.M2TS 1:17:59.107 0:03:18.531 0 0

演唱会下载地址

BLACKPINK组合.The Album专辑.2021日本线上演唱会.33.8G.金智秀.金珍妮.朴彩英.LISA.1080P蓝光原盘演唱会.ISO

网盘下载地址
https://www.aliyundrive.com/s/LSdTY9YxTRs
提取码
付费获取查看

【付费内容】您需要支付8元 才能查看内容
点击扫码支付购买
如果遇到问题请提前截图发给客服
QQ 2268809533

演唱会文件格式

.ISO

演唱会字幕

演唱会编码

www.dengshe.com.6554

BLACKPINK组合.The Album专辑.2021日本线上演唱会.33.8G.金智秀.金珍妮.朴彩英.LISA.1080P蓝光原盘演唱会.ISO

显示验证码
没有账号? 注册  忘记密码?