古巨基.The Magic Moments 2007.香港演唱会.44.85G.1080P高清蓝光原盘演唱会.BDMV

1349.古巨基.The

古巨基 演唱会视频下载地址

1349.古巨基.The Magic Moments 2007.香港演唱会.44.85G.1080P高清蓝光原盘演唱会.BDMV

网盘下载地址
1.阿里云盘. 2.百度网盘
提取码 —>请您付费获取查看

【付费内容】您需要支付8元 才能查看内容
点击扫码支付购买
如果遇到问题请提前截图发给客服
QQ 2268809533

古巨基 演唱会视频截图

古巨基 演唱会视频剧情截图

古巨基 演唱会视频介绍

暂无

古巨基 演唱会视频参数

DISC INFO:

Disc Label: 1349.古巨基.The Magic Moments 2007.香港演唱会.44.85G.1080P高清蓝光原盘演唱会.BDMV
Disc Size: 48,142,777,176 bytes
Protection: AACS
BDInfo: 0.7.5.5

PLAYLIST REPORT:

Name: 00010.MPLS
Length: 2:31:33.184 (h:m:s.ms)
Size: 0 bytes
Total Bitrate: 0.00 Mbps

VIDEO:

Codec Bitrate Description
—– ——- ———–
MPEG-4 AVC Video 0 kbps 1080i / 29.970 fps / 16:9 / High Profile 4.1

AUDIO:

Codec Language Bitrate Description
—– ——– ——- ———–
LPCM Audio Chinese 6912 kbps 5.1 / 48 kHz / 6912 kbps / 24-bit
DTS-HD Master Audio Chinese 0 kbps 5.1 / 48 kHz / 24-bit (DTS Core: 5.1 / 48 kHz / 1509 kbps / 24-bit)
Dolby Digital Audio Chinese 640 kbps 5.1 / 48 kHz / 640 kbps / DN -31dB
Dolby Digital Audio Chinese 224 kbps 2.0 / 48 kHz / 224 kbps / DN -31dB

SUBTITLES:

Codec Language Bitrate Description
—– ——– ——- ———–
Presentation Graphics Chinese 0.000 kbps
Presentation Graphics Chinese 0.000 kbps

FILES:

Name Time In Length Size Total Bitrate
—- ——- —— —- ————-
00000.M2TS 0:00:00.000 0:59:59.629 0 0
00001.M2TS 0:59:59.629 0:59:28.598 0 0
00002.M2TS 1:59:28.227 0:32:04.956 0 0

古巨基 演唱会视频下载地址

1349.古巨基.The Magic Moments 2007.香港演唱会.44.85G.1080P高清蓝光原盘演唱会.BDMV

网盘下载地址
1.阿里云盘. 2.百度网盘
提取码 —>请您付费获取查看

【付费内容】您需要支付8元 才能查看内容
点击扫码支付购买
如果遇到问题请提前截图发给客服
QQ 2268809533

古巨基 演唱会视频文件格式

BDMV蓝光原盘M2TS高清格式

古巨基 演唱会视频文件大小

44.85G

古巨基 演唱会视频字幕

中文简体+繁体字幕

古巨基 演唱会视频编码

www.dengshe.com.1349
lgych-00042

显示验证码
没有账号? 注册  忘记密码?