刘德华 Andy Lau 2008.中国巡回演唱会上海站.45.64G.1080P高清蓝光原盘演唱会.BDMV

1523.刘德华

刘德华 演唱会视频下载地址

1523.刘德华 Andy Lau 2008.中国巡回演唱会上海站.45.64G.1080P高清蓝光原盘演唱会.BDMV

网盘下载地址
1.阿里云盘. 2.百度网盘
提取码 —>请您付费获取查看

【付费内容】您需要支付8元 才能查看内容
点击扫码支付购买
如果遇到问题请提前截图发给客服
QQ 2268809533

刘德华 演唱会视频截图

刘德华 演唱会视频剧情截图

刘德华 演唱会视频介绍

暂无

刘德华 演唱会视频参数

DISC INFO:

Disc Title: Andy Lau Shanghai Concert – 1523.刘德华 Andy Lau 2008.中国巡回演唱会上海站.45.64G.1080P高清蓝光原盘演唱会.BDMV
Disc Label: www.dengshe.com.1523.BDMV
Disc Size: 49,007,898,470 bytes
Protection: AACS
BDInfo: 0.7.5.5

PLAYLIST REPORT:

Name: 00001.MPLS
Length: 2:34:05.236 (h:m:s.ms)
Size: 0 bytes
Total Bitrate: 0.00 Mbps

VIDEO:

Codec Bitrate Description
—– ——- ———–
MPEG-4 AVC Video 0 kbps 1080i / 29.970 fps / 16:9 / High Profile 4.1

AUDIO:

Codec Language Bitrate Description
—– ——– ——- ———–
LPCM Audio Chinese 4608 kbps 5.1 / 48 kHz / 4608 kbps / 16-bit
DTS-HD Master Audio Chinese 0 kbps 5.1 / 96 kHz / 24-bit (DTS Core: 6.1 / 48 kHz / 1509 kbps / 24-bit)
Dolby Digital Audio Chinese 384 kbps 5.1 / 48 kHz / 384 kbps / DN -27dB
Dolby Digital Audio Chinese 192 kbps 2.0 / 48 kHz / 192 kbps / DN -27dB

SUBTITLES:

Codec Language Bitrate Description
—– ——– ——- ———–
Presentation Graphics Chinese 0.000 kbps
Presentation Graphics Chinese 0.000 kbps

FILES:

Name Time In Length Size Total Bitrate
—- ——- —— —- ————-
00003.M2TS 0:00:00.000 0:45:19.717 0 0
00004.M2TS 0:45:19.717 0:59:28.564 0 0
00005.M2TS 1:44:48.281 0:49:14.952 0 0
00010.M2TS 2:34:03.234 0:00:02.001 0 0

刘德华 演唱会视频下载地址

1523.刘德华 Andy Lau 2008.中国巡回演唱会上海站.45.64G.1080P高清蓝光原盘演唱会.BDMV

网盘下载地址
1.阿里云盘. 2.百度网盘
提取码 —>请您付费获取查看

【付费内容】您需要支付8元 才能查看内容
点击扫码支付购买
如果遇到问题请提前截图发给客服
QQ 2268809533

刘德华 演唱会视频文件格式

BDMV蓝光原盘M2TS高清格式

刘德华 演唱会视频文件大小

45.64G

刘德华 演唱会视频字幕

中文简体+繁体字幕

刘德华 演唱会视频编码

www.dengshe.com.1523
lgych-00070

显示验证码
没有账号? 注册  忘记密码?