单向乐队:这就是我们.One Direction:This Is Us.2013音乐纪录片.37.8G.1080P高清蓝光原盘演唱会.ISO

2051.单向乐队:这就是我们.One

单向乐队 演唱会视频下载地址

2051.单向乐队:这就是我们.One Direction:This Is Us.2013音乐纪录片.37.8G.1080P高清蓝光原盘演唱会.ISO

网盘下载地址
1.阿里云盘. 2.百度网盘
提取码 —>请您付费获取查看

【付费内容】您需要支付10元 才能查看内容
点击扫码支付购买
如果遇到问题请提前截图发给客服
QQ 2268809533

单向乐队 演唱会视频截图

单向乐队 演唱会视频剧情截图

单向乐队 演唱会视频介绍

暂无

单向乐队 演唱会视频参数

DISC INFO:

Disc Title: One Direction: This Is Us – 2051.单向乐队:这就是我们.One Direction:This Is Us.2013音乐纪录片.37.8G.1080P高清蓝光原盘演唱会.ISO
Disc Label: www.dengshe.com.1D_THIS_IS_US
Disc Size: 43,688,239,792 bytes
Protection: 灯社演唱会下载
Extras: BD-Java
BDInfo: www.dengshe.com

PLAYLIST REPORT:

Name: 00002.MPLS
Length: 1:46:40.268 (h:m:s.ms)
Size: 0 bytes
Total Bitrate: 0.00 Mbps

VIDEO:

Codec Bitrate Description
—– ——- ———–
MPEG-4 AVC Video 0 kbps 1080p / 23.976 fps / 16:9 / High Profile 4.1

AUDIO:

Codec Language Bitrate Description
—– ——– ——- ———–
DTS-HD Master Audio English 0 kbps 5.1 / 48 kHz / 24-bit (DTS Core: 5.1 / 48 kHz / 1509 kbps / 24-bit)

SUBTITLES:

Codec Language Bitrate Description
—– ——– ——- ———–
Presentation Graphics English 0.000 kbps
Presentation Graphics English 0.000 kbps
Presentation Graphics Chinese 0.000 kbps
Presentation Graphics Chinese 0.000 kbps
Presentation Graphics Chinese 0.000 kbps
Presentation Graphics French 0.000 kbps
Presentation Graphics Indonesian 0.000 kbps
Presentation Graphics Korean 0.000 kbps
Presentation Graphics Malay 0.000 kbps
Presentation Graphics Portuguese 0.000 kbps
Presentation Graphics Spanish 0.000 kbps
Presentation Graphics Thai 0.000 kbps

FILES:

Name Time In Length Size Total Bitrate
—- ——- —— —- ————-
00002.M2TS 0:00:00.000 0:08:56.494 0 0
00004.M2TS 0:08:56.494 0:01:00.894 0 0
00005.M2TS 0:09:57.388 0:17:19.455 0 0

单向乐队 演唱会视频下载地址

2051.单向乐队:这就是我们.One Direction:This Is Us.2013音乐纪录片.37.8G.1080P高清蓝光原盘演唱会.ISO

网盘下载地址
1.阿里云盘. 2.百度网盘
提取码 —>请您付费获取查看

【付费内容】您需要支付10元 才能查看内容
点击扫码支付购买
如果遇到问题请提前截图发给客服
QQ 2268809533

单向乐队 演唱会视频文件格式

ISO蓝光原盘M2TS高清格式

单向乐队 演唱会视频文件大小

37.8G

单向乐队 演唱会视频字幕

单向乐队 演唱会视频编码

www.dengshe.com.2051
lgych-00155

显示验证码
没有账号? 注册  忘记密码?