王菀之.菀之论.2014香港红馆演唱会.43.4G.1080P高清蓝光原盘演唱会.ISO

2053.王菀之.菀之论.2014香港红馆演唱会.43.4G.1080P高清蓝光原盘演唱会.ISO

王菀之 演唱会视频下载地址

2053.王菀之.菀之论.2014香港红馆演唱会.43.4G.1080P高清蓝光原盘演唱会.ISO

网盘下载地址
1.阿里云盘. 2.百度网盘
提取码 —>请您付费获取查看

【付费内容】您需要支付8元 才能查看内容
点击扫码支付购买
如果遇到问题请提前截图发给客服
QQ 2268809533

王菀之 演唱会视频截图

王菀之 演唱会视频剧情截图

王菀之 演唱会视频介绍

暂无

王菀之 演唱会视频参数

DISC INFO:

Disc Title: Ivana Concert 2014 – 2053.王菀之.菀之论.2014香港红馆演唱会.43.4G.1080P高清蓝光原盘演唱会.ISO
Disc Label: www.dengshe.com.IVANA CONCERT 2014
Disc Size: 46,678,569,836 bytes
Protection: 灯社演唱会下载
BDInfo: www.dengshe.com

PLAYLIST REPORT:

Name: 00001.MPLS
Length: 3:37:40.380 (h:m:s.ms)
Size: 0 bytes
Total Bitrate: 0.00 Mbps

VIDEO:

Codec Bitrate Description
—– ——- ———–
MPEG-4 AVC Video 0 kbps 1080i / 29.970 fps / 16:9 / High Profile 4.1

AUDIO:

Codec Language Bitrate Description
—– ——– ——- ———–
DTS-HD Master Audio Chinese 0 kbps 5.1 / 96 kHz / 24-bit (DTS Core: 6.1 / 48 kHz / 1509 kbps / 24-bit)
Dolby Digital Audio Chinese 640 kbps 5.1 / 48 kHz / 640 kbps / DN -31dB
LPCM Audio Chinese 4608 kbps 2.0 / 96 kHz / 4608 kbps / 24-bit
Dolby Digital Audio Chinese 384 kbps 2.0 / 48 kHz / 384 kbps / DN -31dB

SUBTITLES:

Codec Language Bitrate Description
—– ——– ——- ———–
Presentation Graphics Chinese 0.000 kbps

FILES:

Name Time In Length Size Total Bitrate
—- ——- —— —- ————-
00003.M2TS 0:00:00.000 1:30:47.108 0 0
00004.M2TS 1:30:47.108 0:53:39.482 0 0
00005.M2TS 2:24:26.591 0:02:53.706 0 0

王菀之 演唱会视频下载地址

2053.王菀之.菀之论.2014香港红馆演唱会.43.4G.1080P高清蓝光原盘演唱会.ISO

网盘下载地址
1.阿里云盘. 2.百度网盘
提取码 —>请您付费获取查看

【付费内容】您需要支付8元 才能查看内容
点击扫码支付购买
如果遇到问题请提前截图发给客服
QQ 2268809533

王菀之 演唱会视频文件格式

ISO蓝光原盘M2TS高清格式

王菀之 演唱会视频文件大小

43.4G

王菀之 演唱会视频字幕

中文繁体字幕

王菀之 演唱会视频编码

www.dengshe.com.2053
lgych-00156

显示验证码
没有账号? 注册  忘记密码?