椎名林檎.性的治疗.2019最新MV精选合集5-7.21.2G.1080P蓝光原盘.ISO

【付费内容】您需要支付 10 元,才能查看内容
点击扫码支付购买
如果遇到问题请提前截图发给客服
QQ 2268809533

演唱会剧情图

演唱会视频参数

DISC INFO:
Disc Title: 5158.椎名林檎.性的治疗.2019最新MV精选合集5-7.21.2G.1080P蓝光原盘.DengShe.com.ISO
Disc Size: 22,854,565,736 bytes
Protection: AACS
BD-Java: No
BDInfo: 0.5.8
PLAYLIST REPORT:
Name: 00001.MPLS
Length: 1:11:31.954 (h:m:s.ms)
Size: 0 bytes
Total Bitrate: 0.00 Mbps
VIDEO:
Codec Bitrate Description
—– ——- ———–
MPEG-4 AVC Video 0 kbps 1080i / 29.970 fps / 16:9 / High Profile 4.1
AUDIO:
Codec Language Bitrate Description
—– ——– ——- ———–
LPCM Audio Japanese 4608 kbps 2.0 / 96 kHz / 4608 kbps / 24-bit
FILES:
Name Time In Length Size Total Bitrate
—- ——- —— —- ————-
00002.M2TS 0:00:00.000 0:22:55.574 0 0
00003.M2TS 0:22:55.574 0:28:01.613 0 0
00004.M2TS 0:50:57.187 0:20:25.757 0 0
00005.M2TS 1:11:22.945 0:00:09.009 0 0

演唱会下载地址

5158.椎名林檎.性的治疗.2019最新MV精选合集5-7.21.2G.1080P蓝光原盘.DengShe.com.ISO

网盘下载地址
https://pan.baidu.com/s/13JIt1F2bRlaIHatKcqJrLg
提取码
付费获取查看

【付费内容】您需要支付 10 元,才能查看内容
点击扫码支付购买
如果遇到问题请提前截图发给客服
QQ 2268809533

椎名林檎.性的治疗.2019最新MV精选合集5-7.21.2G.1080P蓝光原盘.ISO

没有账号? 注册  忘记密码?