SHINee组合.D×D×D.2015专辑蓝光MV合集.18.5G.1080P蓝光原盘.ISO

【付费内容】您需要支付 10 元,才能查看内容
点击扫码支付购买
如果遇到问题请提前截图发给客服
QQ 2268809533

演唱会剧情图

演唱会视频参数

DISC INFO:
Disc Title: 5156.SHINee组合.D×D×D.2015专辑蓝光MV合集.18.5G.1080P蓝光原盘.DengShe.com.ISO
Disc Size: 19,944,428,102 bytes
Protection: AACS
BD-Java: No
BDInfo: 0.5.8
PLAYLIST REPORT:
Name: 00008.MPLS
Length: 0:44:29.166 (h:m:s.ms)
Size: 0 bytes
Total Bitrate: 0.00 Mbps
VIDEO:
Codec Bitrate Description
—– ——- ———–
MPEG-4 AVC Video 0 kbps 1080p / 23.976 fps / 16:9 / High Profile 4.1
AUDIO:
Codec Language Bitrate Description
—– ——– ——- ———–
LPCM Audio Japanese 2304 kbps 2.0 / 48 kHz / 2304 kbps / 24-bit
FILES:
Name Time In Length Size Total Bitrate
—- ——- —— —- ————-
00016.M2TS 0:00:00.000 0:03:27.707 0 0
00017.M2TS 0:03:27.707 0:03:13.693 0 0
00018.M2TS 0:06:41.400 0:03:18.698 0 0
00019.M2TS 0:10:00.099 0:03:58.738 0 0

演唱会下载地址

5156.SHINee组合.D×D×D.2015专辑蓝光MV合集.18.5G.1080P蓝光原盘.DengShe.com.ISO

网盘下载地址
https://pan.baidu.com/s/1xdp5tO81JKlU7u7_LwuqhA
提取码
付费获取查看

【付费内容】您需要支付 10 元,才能查看内容
点击扫码支付购买
如果遇到问题请提前截图发给客服
QQ 2268809533

SHINee组合.D×D×D.2015专辑蓝光MV合集.18.5G.1080P蓝光原盘.ISO

没有账号? 注册  忘记密码?