Babymetal.LEGEND S BAPTISM XX.日本演唱会2017.中元铃香.水野由结.菊地最爱.32.9G.1080P高清蓝光原盘演唱会.ISO

6638

演唱会视频下载地址

6638 . Babymetal.LEGEND S BAPTISM XX.日本演唱会2017.中元铃香.水野由结.菊地最爱.32.9G.1080P高清蓝光原盘演唱会.ISO

网盘下载地址
1.百度网盘(有). 2.阿里云盘(有)
提取码 —>请您付费获取查看

【付费内容】您需要支付8元 才能查看内容
点击扫码支付购买

灯社演唱会充值优惠中 ... ...
___ 充值80到账88 ___
支持微信,点击查看详情
... ...
如果遇到问题请提前截图发给客服
QQ 2268809533

演唱会视频截图

演唱会视频剧情截图

演唱会视频介绍

暂无

演唱会视频参数

DISC INFO:

Disc Title: LEGEND - S - BAPTISM XX -
Disc Label: 6638 . Babymetal.LEGEND S BAPTISM XX.日本演唱会2017.中元铃香.水野由结.菊地最爱.32.9G.1080P高清蓝光原盘演唱会.ISO
Disc Size: 35,364,876,589 bytes
Protection: AACS
http://www.dengshe.com

PLAYLIST REPORT:

Name: 00001.MPLS
Length: 1:46:12.366 (h:m:s.ms)
Size: 0 bytes
Total Bitrate: 0.00 Mbps

VIDEO:

Codec Bitrate Description
----- ------- -----------
MPEG-4 AVC Video 0 kbps 1080i / 29.970 fps / 16:9 / High Profile 4.1

AUDIO:

Codec Language Bitrate Description
----- -------- ------- -----------
LPCM Audio Japanese 2304 kbps 2.0 / 48 kHz / 2304 kbps / 24-bit

FILES:

Name Time In Length Size Total Bitrate
---- ------- ------ ---- -------------
00003.M2TS 0:00:00.000 1:45:57.351 0 0
00006.M2TS 1:45:57.351 0:00:09.009 0 0
00013.M2TS 1:46:06.360 0:00:06.006 0 0

演唱会视频下载地址

6638 . Babymetal.LEGEND S BAPTISM XX.日本演唱会2017.中元铃香.水野由结.菊地最爱.32.9G.1080P高清蓝光原盘演唱会.ISO

网盘下载地址
1.百度网盘(有). 2.阿里云盘(有)
提取码 —>请您付费获取查看

【付费内容】您需要支付8元 才能查看内容
点击扫码支付购买

灯社演唱会充值优惠中 ... ...
___ 充值80到账88 ___
支持微信,点击查看详情
... ...
如果遇到问题请提前截图发给客服
QQ 2268809533

演唱会视频文件格式

ISO蓝光原盘M2TS高清格式

演唱会视频文件大小

32.9G

演唱会视频字幕

演唱会视频编码

http://www.dengshe.com.6638

显示验证码
没有账号? 注册  忘记密码?