SHINee组合.SHINee WORLD J presents SHINee Special Fan Event.2018东京演唱会.40.8G.1080P蓝光原盘.BDMV

【付费内容】您需要支付 8 元,才能查看内容
点击扫码支付购买
如果遇到问题请提前截图发给客服
QQ 2268809533

演唱会剧情图

演唱会视频参数

DISC INFO:
Disc Title: 5859.SHINee组合.SHINee WORLD J presents SHINee Special Fan Event.2018东京演唱会.40.8G.1080P蓝光原盘.DengShe.com.BDMV
Disc Size: 43,811,610,482 bytes
Protection: AACS
BD-Java: No
BDInfo: 0.5.8
PLAYLIST REPORT:
Name: 00002.MPLS
Length: 2:19:05.503 (h:m:s.ms)
Size: 0 bytes
Total Bitrate: 0.00 Mbps
VIDEO:
Codec Bitrate Description
—– ——- ———–
MPEG-4 AVC Video 0 kbps 1080i / 29.970 fps / 16:9 / High Profile 4.1
AUDIO:
Codec Language Bitrate Description
—– ——– ——- ———–
LPCM Audio Japanese 2304 kbps 2.0 / 48 kHz / 2304 kbps / 24-bit
FILES:
Name Time In Length Size Total Bitrate
—- ——- —— —- ————-
00003.M2TS 0:00:00.000 2:18:52.957 0 0
00004.M2TS 2:18:52.957 0:00:03.003 0 0
00005.M2TS 2:18:55.960 0:00:09.542 0 0

演唱会下载地址

5859.SHINee组合.SHINee WORLD J presents SHINee Special Fan Event.2018东京演唱会.40.8G.1080P蓝光原盘.DengShe.com.BDMV

网盘下载地址
https://pan.baidu.com/s/1HH_ZnLvaXSQjNvJdy1XEFg
提取码
付费获取查看

【付费内容】您需要支付 8 元,才能查看内容
点击扫码支付购买
如果遇到问题请提前截图发给客服
QQ 2268809533

SHINee组合.SHINee WORLD J presents SHINee Special Fan Event.2018东京演唱会.40.8G.1080P蓝光原盘.DengShe.com.BDMV

没有账号? 注册  忘记密码?