卢广仲.大人中 Adult.11周年台北小巨蛋2019演唱会.43.3G.1080P蓝光原盘.ISO

【付费内容】您需要支付 8 元,才能查看内容
点击扫码支付购买
如果遇到问题请提前截图发给客服
QQ 2268809533 >> 微信 tao18074625335

演唱会剧情图

演唱会视频参数

DISC INFO:
Disc Title: 5135.卢广仲.大人中 Adult.11周年台北小巨蛋2019演唱会.43.3G.1080P蓝光原盘.DengShe.com
Disc Size: 207,521,729,970 bytes
Protection: AACS
BD-Java: No
BDInfo: 0.5.8
PLAYLIST REPORT:
Name: 00001.MPLS
Length: 3:04:42.237 (h:m:s.ms)
Size: 0 bytes
Total Bitrate: 0.00 Mbps
VIDEO:
Codec Bitrate Description
—– ——- ———–
MPEG-4 AVC Video 0 kbps 1080p / 23.976 fps / 16:9 / High Profile 4.1
AUDIO:
Codec Language Bitrate Description
—– ——– ——- ———–
LPCM Audio Chinese 2304 kbps 2.0 / 48 kHz / 2304 kbps / 24-bit
Dolby Digital Audio Chinese 448 kbps 5.1 / 48 kHz / 448 kbps
SUBTITLES:
Codec Language Bitrate Description
—– ——– ——- ———–
Presentation Graphics Chinese 0.000 kbps
Presentation Graphics Chinese 0.000 kbps
Presentation Graphics English 0.000 kbps
Presentation Graphics Japanese 0.000 kbps
FILES:
Name Time In Length Size Total Bitrate
—- ——- —— —- ————-
00001.M2TS 0:00:00.000 0:26:47.480 0 0
00008.M2TS 0:26:47.480 0:02:11.047 0 0
00002.M2TS 0:28:58.528 0:22:34.311 0 0
00009.M2TS 0:51:32.839 0:02:59.053 0 0

演唱会下载地址

5135.卢广仲.大人中 Adult.11周年台北小巨蛋2019演唱会.43.3G.1080P蓝光原盘.DengShe.com.ISO

网盘下载地址
https://pan.baidu.com/s/1RRK0AOGpgzCzRY6bKYisXA
提取码
付费获取查看

【付费内容】您需要支付 8 元,才能查看内容
点击扫码支付购买
如果遇到问题请提前截图发给客服
QQ 2268809533 >> 微信 tao18074625335

卢广仲.大人中 Adult.11周年台北小巨蛋2019演唱会.43.3G.1080P蓝光原盘.DengShe.com.ISO

没有账号? 注册  忘记密码?