SHINee组合.SHINee WORLD 2014 I m Your Boy Special Edition.东京演唱会.60.5G.1080P蓝光原盘.BDMV

【付费内容】您需要支付 8 元,才能查看内容
点击扫码支付购买
如果遇到问题请提前截图发给客服
QQ 2268809533

演唱会剧情图

演唱会视频参数

DISC INFO:
Disc Title: 5897.SHINee组合.SHINee WORLD 2014 I m Your Boy Special Edition.东京演唱会.60.5G.1080P蓝光原盘.DengShe.com.BDMV
Disc Size: 49,158,661,232 bytes
Protection: AACS
BD-Java: No
BDInfo: 0.5.8
PLAYLIST REPORT:
Name: 00001.MPLS
Length: 3:36:24.972 (h:m:s.ms)
Size: 0 bytes
Total Bitrate: 0.00 Mbps
VIDEO:
Codec Bitrate Description
—– ——- ———–
MPEG-4 AVC Video 0 kbps 1080i / 29.970 fps / 16:9 / High Profile 4.1
AUDIO:
Codec Language Bitrate Description
—– ——– ——- ———–
LPCM Audio Japanese 2304 kbps 2.0 / 48 kHz / 2304 kbps / 24-bit
DTS-HD Master Audio Japanese 0 kbps 5.1 / 48 kHz / 24-bit (DTS Core: 5.1 / 48 kHz / 1509 kbps / 24-bit)
FILES:
Name Time In Length Size Total Bitrate
—- ——- —— —- ————-
00002.M2TS 0:00:00.000 1:59:29.162 0 0
00003.M2TS 1:59:29.162 1:36:47.802 0 0
00004.M2TS 3:36:16.964 0:00:08.007 0 0

演唱会下载地址

5897.SHINee组合.SHINee WORLD 2014 I m Your Boy Special Edition.东京演唱会.60.5G.1080P蓝光原盘.DengShe.com.BDMV

网盘下载地址
https://pan.baidu.com/s/1aUNjoYxZSh_IO2_seBfsmg
提取码
付费获取查看

【付费内容】您需要支付 8 元,才能查看内容
点击扫码支付购买
如果遇到问题请提前截图发给客服
QQ 2268809533

SHINee组合.SHINee WORLD 2014 I m Your Boy Special Edition.东京演唱会.60.5G.1080P蓝光原盘.DengShe.com.BDMV

没有账号? 注册  忘记密码?