SHINee.李泰民.TAEMIN Japan 1st Tour SIRIUS.2018日本巡回演唱会.80G.1080P蓝光原盘.BDMV

【付费内容】您需要支付 8 元,才能查看内容
点击扫码支付购买
如果遇到问题请提前截图发给客服
QQ 2268809533

演唱会剧情图

演唱会视频参数

DISC INFO:
Disc Title: 5901.SHINee.李泰民.TAEMIN Japan 1st Tour SIRIUS.2018日本巡回演唱会.80.G.1080P蓝光原盘.DengShe.com.BDMV
Disc Size: 39,194,041,454 bytes
Protection: AACS
BD-Java: No
BDInfo: 0.5.8
PLAYLIST REPORT:
Name: 00002.MPLS
Length: 2:05:11.921 (h:m:s.ms)
Size: 0 bytes
Total Bitrate: 0.00 Mbps
VIDEO:
Codec Bitrate Description
—– ——- ———–
MPEG-4 AVC Video 0 kbps 1080p / 23.976 fps / 16:9 / High Profile 4.1
AUDIO:
Codec Language Bitrate Description
—– ——– ——- ———–
LPCM Audio Japanese 2304 kbps 2.0 / 48 kHz / 2304 kbps / 24-bit
FILES:
Name Time In Length Size Total Bitrate
—- ——- —— —- ————-
00003.M2TS 0:00:00.000 2:04:59.325 0 0
00004.M2TS 2:04:59.325 0:00:03.003 0 0
00005.M2TS 2:05:02.328 0:00:09.592 0 0

演唱会下载地址

5901.SHINee.李泰民.TAEMIN Japan 1st Tour SIRIUS.2018日本巡回演唱会.80G.1080P蓝光原盘.DengShe.com.BDMV

网盘下载地址
https://pan.baidu.com/s/1xGRLF2oZikcvm_7tWkE75Q
提取码
付费获取查看

【付费内容】您需要支付 8 元,才能查看内容
点击扫码支付购买
如果遇到问题请提前截图发给客服
QQ 2268809533

SHINee.李泰民.TAEMIN Japan 1st Tour SIRIUS.2018日本巡回演唱会.80.G.1080P蓝光原盘.DengShe.com.BDMV

没有账号? 注册  忘记密码?